#TITLE:Blaze;
#SUBTITLE:YamiRyou SM;
#ARTIST:.....;
#TITLETRANSLIT:Blaze;
#SUBTITLETRANSLIT:;
#ARTISTTRANSLIT:.....;
#CREDIT:YamiRyou;
#BANNER:bn.png;
#BACKGROUND:bg.png;
#LYRICSPATH:;
#CDTITLE:Yami.png;
#MUSIC:Blaze.mp3;
#OFFSET:-0.060;
#SAMPLESTART:30.200;
#SAMPLELENGTH:20.000;
#SELECTABLE:YES;
#BPMS:0.000=175.010,83.500=87.505,84.750=65.629,85.000=131.257,86.000=175.005,309.500=87.503,310.250=65.627,310.500=131.254,311.500=175.003,375.500=87.505,406.375=175.010;
#STOPS:309.750=0.343
;
#BGCHANGES:;
// cache tags:
#FIRSTBEAT:4.000;
#LASTBEAT:406.375;
#SONGFILENAME:Songs/Music V.I.P ^_^/Blaze/Blaze.sm;
#HASMUSIC:1;
#HASBANNER:1;
#MUSICLENGTH:152.136;
// end cache tags

//---------------dance-single - YamiRyou----------------
#NOTES:
     dance-single:
     YamiRyou:
     Hard:
     17:
     1.000,1.000,1.000,0.013,1.000,1141.000,350.000,2.000,0.000,12.000:
0000
0000
0000
0000
,
0001
0010
0100
0010
0001
0010
0100
1000
0001
0010
0100
0010
0001
0100
0100
0100
,
1001
0010
0100
0010
0001
1000
0100
0010
0001
0010
0100
0001
0010
0100
0100
0100
,
1001
0010
0100
0010
0001
1000
0100
0010
0001
1000
0100
0010
0100
1000
1000
1000
,
0101
0010
0100
1000
0001
1000
0100
0010
1000
0100
0010
0100
1001
0010
0010
0010
,
1001
0100
0010
0100
1001
0010
0100
0010
1001
0100
0010
0100
1001
0010
0100
0010
,
1001
0100
0010
0100
1001
0010
0100
0010
1001
0100
0010
0100
1001
0010
0100
0010
,
1001
0100
0010
0100
1001
0010
0100
0010
1001
0100
0010
0100
1001
0010
0100
0010
,
1001
0100
0010
0100
1001
0010
0100
0010
1001
0100
0010
0100
1001
0010
0100
0010
,
1001
0100
0010
0100
1001
0010
0100
0010
1001
0100
0010
0100
1001
0010
0100
0010
,
1001
0100
0010
0100
1001
0010
0100
0010
1001
0100
0010
0100
1001
0010
0100
0010
,
1001
0100
0010
0100
1001
0010
0100
0010
1001
0100
0010
0100
1001
0010
0100
0010
,
1001
0100
0010
0100
1001
0010
0100
0010
1001
0000
0000
1000
1100
0000
1000
0000
,
1100
0100
0101
1000
0011
0001
1010
0100
,
1001
0010
1100
0100
0101
1000
0011
0100
,
1001
1000
1010
0001
1100
0100
1001
1000
,
1010
0001
0101
1000
0011
0100
1010
0100
,
1001
0010
1100
0010
0101
1000
0110
0001
,
1001
0001
1010
0100
1100
1000
0011
1000
,
0101
1000
1010
0100
1100
0001
1001
0010
,
1001
0010
1100
0100
1001
0010
0011
0002
,
0000
0000
0000
0013
0000
0010
0000
0000
1001
0100
0010
0001
0110
1000
0001
0010
,
0101
1000
0010
0100
1001
0100
0010
0100
1001
0100
0010
0100
1001
0100
0010
0100
,
1001
0010
0100
0010
1001
0100
0010
1000
0110
0001
1000
0001
0110
1000
0100
0001
,
0110
1000
0001
0010
1100
0010
0001
0100
1001
0100
0010
0001
1010
0100
0010
0001
,
0110
1000
0100
0010
1001
0010
0100
0010
1001
0100
0010
0001
1010
0100
0010
0100
,
1010
0001
0010
0100
0011
1000
0100
0010
1001
0010
0100
0010
1001
0010
0100
0010
,
1001
0100
0010
0100
1001
0010
0100
0001
0110
1000
0100
0001
0110
1000
0100
0001
,
0110
1000
0001
0010
1100
0010
0001
0100
1001
0100
0010
0001
1010
0100
0010
0001
,
0110
1000
0100
0010
1100
0010
0001
0010
1100
0001
0010
0100
1000
0100
0010
0000
,
0011
0000
0110
0000
1100
0000
0011
0000
1010
0100
0010
0001
0010
0100
1000
0000
,
0011
0000
1100
0000
0110
0000
0011
0000
1001
0010
0100
1000
0100
0001
0010
0000
,
0110
0000
0100
0000
0100
0000
0010
0000
0001
0010
0100
0001
1000
0100
1000
0001
,
0010
0100
1000
0001
0100
0010
0100
0000
1001
0010
0100
1000
0100
0010
0001
0000
,
0011
0000
0110
0000
1100
0000
0011
0000
1001
0100
0010
0001
0010
0100
1000
0000
,
1100
0000
0011
0000
1100
0000
0110
0000
1001
0100
0010
0100
1000
0010
0100
0000
,
0010
0000
0100
0000
0100
0000
0010
0000
0011
0100
1000
0001
0100
0010
0100
0001
,
0010
0100
1000
0001
1000
0100
1000
0001
0110
1000
0001
0100
1001
0010
1000
0001
,
1100
0010
0001
1000
0110
1000
0001
1000
0110
1000
0001
1000
0110
1000
0001
0100
,
0011
1000
0001
1000
0110
1000
0001
0100
1001
0010
1000
0100
1001
0010
1000
0100
,
1001
0010
0100
0001
1010
0001
0100
1000
0011
1000
0001
0100
0011
1000
0001
0100
,
1001
0010
1000
0001
0110
0001
1000
0001
0110
1000
0001
0100
0011
1000
0001
1000
,
0011
0100
0001
1000
0101
0010
1000
0001
0110
0001
1000
0001
0110
0001
1000
0001
,
0110
1000
0001
1000
0110
0001
1000
0100
1001
0010
1000
0100
1001
0010
1000
0100
,
1001
0010
0100
0001
1010
0001
0100
1000
0110
1000
0001
0100
0011
1000
0001
0100
,
1001
0010
1000
0001
1010
0001
0100
0010
1101
0000
0100
0000
0000
0000
1000
0000
,
0000
0100
0000
0010
0000
0001
0000
0010
,
0000
0100
0000
1001
0000
0010
0000
0100
,
0000
1000
0000
0100
0000
0010
0000
0001
,
0000
0010
0000
0100
1100
0000
0101
0000
,
0011
1010
0011
1010
,
1100
0101
1100
0101
,
0011
1010
0011
1010
,
1100
0000
0101
0000
1100
0110
0011
0100
,
0110
1000
0011
0110
1100
0010
1100
0010
,
0011
0100
0011
0010
1100
0100
0110
0011
,
0110
1100
0110
0001
0110
0010
0101
0011
,
0110
1100
0110
0011
0110
0100
1010
0110
,
0011
0110
1100
0110
0011
0110
1100
0110
,
0011
0110
1100
0110
0011
0100
0101
0010
,
1100
0110
0001
0110
0110
1100
1100
0110
,
0110
0011
0011
0110
1011
0110
0011
0100
,
0110
1000
0011
0110
1100
0010
1100
0100
,
0011
0100
0011
0010
1011
0100
1100
0110
,
0011
0110
1100
0001
0110
0010
0110
1100
,
0110
0011
0110
1100
1011
0100
1100
0110
,
0011
0110
1100
0110
0011
0110
1100
0110
,
0011
0110
1100
0110
1011
0100
0101
0010
,
1100
0110
0001
1100
0110
0110
0011
0011
,
0110
0110
1100
1100
1011
0100
0001
0000
,
0010
0000
0100
0001
0021
0000
0100
0000
,
1000
0000
0100
0000
1001
0000
0001
0100
,
1000
0001
0100
0000
1000
0000
0100
0001
,
1000
0100
0001
0100
1001
0000
0001
1000
,
0100
0001
1000
0001
1000
0100
0001
1000
,
0100
0001
0100
1000
1001
0000
1000
0000
,
0000
0001
0000
0100
1000
1000
0100
0100
,
0001
0000
0001
0000
0100
0000
0100
0030
0000
0001
0000
0001
0000
0000
1100
0001
,
1000
0010
1001
0100
0001
1000
0011
0100
1000
0001
0110
0001
1000
0001
0110
0001
,
1000
0001
0110
0001
1000
0010
1100
0001
1000
0001
0110
0001
1000
0010
1001
0100
,
0001
0010
1001
0100
0001
0010
1001
0100
0010
1000
0101
1000
0010
0001
1100
0001
,
1000
0010
1100
0001
1000
0010
1001
0100
0001
1000
0110
1000
0001
1000
0110
0001
,
1000
0010
1100
0001
1000
0001
1100
0010
1000
0001
1010
0100
0001
1000
0110
1000
,
0001
1000
0110
1000
0001
1000
0110
0001
1000
0001
0110
1000
0001
0010
1001
0100
,
0001
0010
1001
0100
0001
0010
1001
0100
0010
1000
0101
1000
0010
0001
0110
0001
,
1000
0010
1100
0001
1000
0010
1001
0100
0001
1000
0101
1000
0010
0100
1001
0010
,
0100
0010
1001
0010
0100
0010
1001
0010
0100
0010
1001
0010
0100
0010
1001
0100
,
0010
0100
1001
0010
0100
0010
1001
0100
0010
0100
1001
0010
0100
0010
1001
0010
,
0100
1000
0101
0010
0100
1000
0101
0010
0100
1000
0110
0001
0010
0100
1011
0100
,
0010
0001
0010
0100
1000
0100
0010
0001
0010
0100
1000
0100
0010
0001
1110
0001
,
0010
0100
1001
0100
0010
0100
1001
0100
0010
0100
1001
0100
0010
0100
1001
0010
,
0100
0010
1001
0100
0010
0100
1001
0010
0100
0010
1001
0100
0010
0100
1001
0010
,
0100
0010
1001
0100
0010
0100
1001
0100
0010
0100
1001
0100
0010
0100
1001
0100
,
0010
0100
1001
0010
0100
0010
1001
0100
0010
0100
1001
0010
0100
0010
1101
0000
,
0000
0000
0000
0000
1000
0000
0000
0000
0001
0000
0000
0000
0100
0000
0000
0010
0000
0000
0000
0000
0000
0000
0001
0000
0000
0000
0000
1000
0000
0000
0000
0000
,
0100
0000
0000
0000
0000
0000
0000
0000
0000
0000
0000
0000
0010
0000
0000
0000
0000
0000
0000
0000
0000
0000
0000
0000
0000
0000
0000
0000
0000
0000
0000
0000
0000
0000
0000
0000
1000
0000
0000
0000
0000
0000
0000
0000
0000
0000
0000
0000
0000
0000
0000
0000
0000
0000
0000
0000
0000
0000
0000
0000
0000
0000
0000
0000
0000
0000
0000
0000
0000
0000
0000
0000
0000
0000
0000
0000
0000
0000
0000
0000
0000
0000
0000
0000
0010
0000
0000
0000
0000
0000
0000
0000
0000
0000
0000
0000
0000
0000
0000
0000
0000
0000
0000
0000
0000
0000
0000
0000
0000
0000
0000
0000
0000
0000
1000
0000
0000
0000
0000
0000
0000
0000
0000
0000
0000
0000
0010
0000
0000
0000
0000
0000
0000
0000
0000
0000
0000
0000
0000
0000
0000
0000
0000
0000
0000
0000
0000
0000
0000
0000
0000
0000
0000
0000
0000
0000
0001
0000
0000
0000
0000
0000
0000
0000
0010
0000
0000
0000
0000
0000
0000
0000
0100
0000
0000
0000
0000
0000
0000
0000
0000
0000
0000
0000
0000
0000
1001
0000
0000
0000
0000
0000
,
0000
0000
0000
0000
0000
0000
0000
0000
0000
0000
0000
0000
0000
0000
0000
0000
0000
0000
0000
0000
0000
0000
0000
0000
1000
0000
0000
0000
0000
0000
0000
0000
0100
0000
0000
0000
0000
0000
0000
0000
0010
0000
0000
0000
0000
0000
0000
0000
0000
0000
0000
0000
0000
0000
0000
0000
0000
1100
0000
0000
0000
0000
0000
0000
0000
0000
0000
0000
0000
0000
0000
0000
0000
0000
0000
0000
0000
0000
0000
0000
0000
0000
0000
0000
0000
0000
0000
0000
0000
0000
0000
0000
0000
0000
0000
0000
0100
0000
0000
0000
0000
0000
0000
0000
0000
0000
0000
0000
0000
0000
0000
0000
0000
0000
0000
0000
0000
0000
0000
0000
0010
0000
0000
0000
0000
0000
0000
0000
0000
0000
0000
0000
0000
0000
0000
0000
0000
0000
0000
0000
0000
0000
0000
0000
0001
0000
0000
0000
0000
0000
0000
0000
0000
0000
0000
0000
0000
0000
0000
0000
0000
0000
1000
0000
0000
0000
0000
0000
0000
0000
0000
0000
0000
0000
0000
0000
0000
0000
0000
0000
0000
0000
0000
0000
0000
0000
0000
0000
0000
0000
0000
0000
,
0000
0000
0010
0000
0000
0000
0000
0100
0000
0000
0000
0000
0001
0000
1000
0000
0000
0000
0100
0000
0000
0000
0000
0000
0000
0000
1000
0000
0000
0000
0000
0100
,
0000
0000
0000
0000
0000
0000
1000
0000
0000
0000
0000
0000
0000
0000
0000
0000
0000
0000
0000
0000
0000
0000
0000
0000
0000
0000
0000
0000
0000
0000
0000
0000
0000
0000
0000
0000
0010
0000
0000
0000
0000
0000
0000
0000
1000
0000
0000
0000
0000
0000
0000
0000
0001
0000
0000
0000
0000
0000
0000
0000
0000
0000
0000
0000
0000
0000
0110
0000
0000
0000
0000
0000
0000
0000
0000
0000
0000
0000
0000
0000
0000
0000
0000
0000
0000
0000
0000
0000
0000
0000
0000
0000
0000
0000
0000
0000
0100
0000
0000
0000
0000
0000
0000
0000
0001
0000
0000
0000
0000
0000
0000
0000
1000
0000
0000
0000
0000
0000
0000
0000
0000
0000
0000
0000
0000
0000
0000
0000
0000
0101
0000
0000
0000
0000
0000
0000
0000
0000
0000
0000
0000
0000
0000
0000
0000
0000
0000
0000
0000
0000
0000
0000
0000
0000
0000
0000
0000
0000
0000
0000
0000
0000
0000
0000
0000
0000
0000
0000
0010
0000
0000
0000
0000
0000
0000
0000
0000
0000
0000
0000
0000
0000
0000
0000
0000
0000
0000
0000
0000
0000
0000
0000
,
1000
0000
0000
0000
0100
0000
0000
0010
0000
0000
0000
0000
0000
0000
0001
0000
0000
0000
0000
1000
0000
0000
0000
0000
0100
0000
0010
0000
0000
0000
0100
0000
,
0000
0000
0000
0000
0000
0000
0000
0000
0000
0000
0000
0000
0000
0000
0000
0000
0000
0000
0000
0000
0000
0000
0000
0000
0000
0000
0000
0000
0000
0000
0000
0000
0000
0000
0000
0000
0010
0000
0000
0000
0000
0000
0000
0000
0000
0000
0000
0000
0000
0000
0000
0000
0000
0000
0000
0000
0000
0000
0000
0000
0000
0000
0000
0000
0000
0000
0100
0000
0000
0000
0000
0000
0000
0000
0000
0000
0000
0000
0010
0000
0000
0000
0000
0000
0000
0000
0000
0000
0000
0000
0000
0000
0000
0000
0000
0000
0000
0000
0000
0000
0000
0000
0000
0000
0000
0000
0000
0000
0001
0000
0000
0000
0000
0000
0000
0000
0010
0000
0000
0000
0000
0000
0000
0000
0100
0000
0000
0000
0000
0000
0000
0000
0000
0000
0000
0000
0000
0000
1001
0000
0000
0000
0000
0000
0000
0000
0000
0000
0000
0000
0000
0000
0000
0000
0000
0000
0000
0000
0000
0000
0000
0000
0000
0000
0000
0000
0000
0000
1000
0000
0000
0000
0000
0000
0000
0000
0100
0000
0000
0000
0000
0000
0000
0000
0010
0000
0000
0000
0000
0000
0000
0000
,
0000
0000
0000
1001
0000
0000
0000
0000
0000
0000
0000
0000
0000
0000
0000
0000
1000
0000
0000
0000
0000
0000
0000
0000
0010
0000
0000
0000
0000
0000
0000
0000
0100
0000
0000
0000
0000
0000
0110
0000
0000
0000
0000
0000
0000
0000
0000
0000
0000
0000
0000
0000
0000
0000
0000
0000
0000
0000
0000
0000
0000
0000
0000
0000
;
